<?xml version="1.0" standalone="no"?>
<!DOCTYPE svg PUBLIC "-//W3C//DTD SVG 1.1//EN" "http://www.w3.org/Graphics/SVG/1.1/DTD/svg11.dtd">
<svg xmlns="http://www.w3.org/2000/svg">
<defs >
<font id="Prompt" horiz-adv-x="601" ><font-face
    font-family="Prompt"
    units-per-em="1000"
    panose-1="0 0 8 0 0 0 0 0 0 0"
    ascent="1090"
    descent="-422"
    alphabetic="0" />
<glyph unicode=" " glyph-name="space" horiz-adv-x="340" />
<glyph unicode="!" glyph-name="exclam" horiz-adv-x="237" d="M31 699H207V230H31V699ZM79 -15T52 11T25 77Q25 117 52 143T119 169Q158 169 185 143T212 77Q212 38 185 12T119 -15Q79 -15 52 11Z" />
<glyph unicode="&quot;" glyph-name="quotedbl" horiz-adv-x="361" d="M25 699H154V494H25V699ZM207 699H336V494H207V699Z" />
<glyph unicode="#" glyph-name="numbersign" horiz-adv-x="776" d="M104 138H25V275H142L176 396H68V532H215L262 699H422L375 532H515L562 699H723L676 532H751V396H637L603 275H708V138H565L526 0H365L404 138H264L225 0H65L104 138ZM442 275L476 396H336L302 275H442Z" />
<glyph unicode="$" glyph-name="dollar" horiz-adv-x="569" d="M202 -12Q149 -7 103 4T25 32V192Q79 164 137 150T249 136Q297 136 319 150T342 193Q342 215 330 229T294 255T214 291Q117 332 73 383T29 508Q29 580 75 631T202 703V802H363V711Q437 703 504 672V516Q416
562 327 562Q282 562 255 547T228 503Q228 483 241 469T279 443T358 410Q429 381 468 353T526 286T544 191Q544 113 499 63T363 -6V-103H202V-12Z" />
<glyph unicode="%" glyph-name="percent" horiz-adv-x="893" d="M158 347T116 371T50 438T25 530Q25 580 49 622T116 689T208 714Q258 714 300 690T367 623T392 530Q392 480 368 438T301 372T208 347Q158 347 116 371ZM551 699H730L343 0H164L551 699ZM239 455T260
475T281 527Q281 559 260 580T208 601Q177 601 157 580T136 527Q136 496 156 476T208 455Q239 455 260 475ZM634 -15T592 9T526 76T501 168Q501 218 525 260T592 327T684 352Q734 352 776 328T843 261T868 168Q868 118 844 76T777 10T684 -15Q634 -15 592 9ZM714
93T735 113T756 165Q756 197 735 218T683 239Q652 239 632 218T611 165Q611 134 631 114T683 93Q714 93 735 113Z" />
<glyph unicode="&amp;" glyph-name="ampersand" horiz-adv-x="794" d="M166 -15T96 37T25 182Q25 247 56 293T156 382Q118 420 99 456T80 539Q80 590 106 629T181 691T297 714Q361 714 408 691T481 629T507 539Q507 482 482 444T398 365L522 247Q541 284 541 367H691Q691
287 680 237T640 135L779 0H564L512 48Q474 15 418 0T282 -15Q166 -15 96 37ZM328 466T342 484T356 527Q356 556 340 571T297 587Q270 587 254 572T238 527Q238 506 250 489T292 444Q328 466 342 484ZM371 108T408 146L273 277Q233 258 216 236T198 182Q198 145
225 127T292 108Q371 108 408 146Z" />
<glyph unicode="&apos;" glyph-name="quotesingle" horiz-adv-x="179" d="M25 699H154V494H25V699Z" />
<glyph unicode="(" glyph-name="parenleft" horiz-adv-x="363" d="M25 10T25 270Q25 530 175 714H358Q206 519 206 270Q206 21 358 -174H175Q25 10 25 270Z" />
<glyph unicode=")" glyph-name="parenright" horiz-adv-x="363" d="M157 21T157 270Q157 519 5 714H188Q338 530 338 270Q338 10 188 -174H5Q157 21 157 270Z" />
<glyph unicode="*" glyph-name="asterisk" horiz-adv-x="440" d="M64 413L137 512L25 551L65 642L161 608V699H279V608L375 643L415 551L304 513L377 414L286 354L221 444L156 353L64 413Z" />
<glyph unicode="+" glyph-name="plus" horiz-adv-x="406" d="M133 237H25V369H133V481H273V369H381V237H273V125H133V237Z" />
<glyph unicode="," glyph-name="comma" horiz-adv-x="315" d="M108 62H290L185 -149H25L108 62Z" />
<glyph unicode="-" glyph-name="hyphen" horiz-adv-x="406" d="M25 373H381V233H25V373Z" />
<glyph unicode="." glyph-name="period" horiz-adv-x="177" d="M62 0T44 18T25 62Q25 89 43 108T88 127Q115 127 133 108T152 62Q152 36 134 18T88 0Q62 0 44 18Z" />
<glyph unicode="/" glyph-name="slash" horiz-adv-x="515" d="M310 714H490L205 0H25L310 714Z" />
<glyph unicode="0" glyph-name="zero" horiz-adv-x="694" d="M250 -15T177 28T65 154T25 349Q25 462 64 544T175 670T347 714Q446 714 518 670T630 544T669 349Q669 236 630 154T517 29T347 -15Q250 -15 177 28ZM414 151T451 203T488 347Q488 440 452 493T347
547Q279 547 243 494T206 347Q206 255 243 203T347 151Q414 151 451 203Z" />
<glyph unicode="1" glyph-name="one" horiz-adv-x="389" d="M167 502L25 399V573L197 699H344V0H167V502Z" />
<glyph unicode="2" glyph-name="two" horiz-adv-x="582" d="M25 101L136 202L184 245Q243 297 274 328T326 391T347 454Q347 547 242 547Q191 547 142 529T50 479V648Q95 679 155 696T283 714Q361 714 418 685T505 605T535 490Q535 413 500 356T385 226L296 145H557V0H25V101Z"
/>
<glyph unicode="3" glyph-name="three" horiz-adv-x="574" d="M189 -15T129 -4T25 29V169Q126 123 229 123Q368 123 368 206Q368 248 334 266T228 285H131V420H224Q283 420 315 440T348 499Q348 536 319 556T237 576Q128 576 39 520V663Q84 687 142 700T262 714Q399
714 464 660T529 506Q529 461 508 421T444 353Q549 307 549 197Q549 96 480 41T255 -15Q189 -15 129 -4Z" />
<glyph unicode="4" glyph-name="four" horiz-adv-x="615" d="M326 144H5V254L336 699H511V284H610V144H511V0H326V144ZM353 284V484L206 284H353Z" />
<glyph unicode="5" glyph-name="five" horiz-adv-x="577" d="M181 -15T122 -2T25 34V189Q70 160 126 144T233 127Q303 127 337 154T371 228Q371 273 337 298T240 323Q205 323 167 317T100 298L32 337L60 699H508V554H231L222 444Q268 456 320 456Q429 456 490
399T552 233Q552 116 473 51T241 -15Q181 -15 122 -2Z" />
<glyph unicode="6" glyph-name="six" horiz-adv-x="628" d="M232 -15T166 23T62 134T25 305Q25 433 70 525T195 666T380 714Q451 714 507 696V546Q463 570 394 570Q319 570 272 530T214 410Q239 436 283 451T376 466Q443 466 494 439T574 359T603 234Q603 163
571 107T474 18T317 -15Q232 -15 166 23ZM364 122T394 152T424 225Q424 269 394 299T320 329Q277 329 247 299T217 225Q217 182 247 152T320 122Q364 122 394 152Z" />
<glyph unicode="7" glyph-name="seven" horiz-adv-x="534" d="M327 554H15V699H519V581L254 0H74L327 554Z" />
<glyph unicode="8" glyph-name="eight" horiz-adv-x="623" d="M181 -15T103 41T25 200Q25 259 52 300T126 362Q88 388 68 426T48 511Q48 607 119 660T312 714Q433 714 504 661T575 511Q575 464 555 426T498 362Q544 343 571 301T598 200Q598 97 521 41T312 -15Q181
-15 103 41ZM351 405T376 429T402 490Q402 527 377 551T312 576Q273 576 248 552T223 490Q223 453 248 429T312 405Q351 405 376 429ZM358 122T386 148T415 218Q415 260 386 287T312 314Q267 314 238 287T209 218Q209 175 237 149T312 122Q358 122 386 148Z" />
<glyph unicode="9" glyph-name="nine" horiz-adv-x="628" d="M174 -15T121 2V152Q167 128 234 128Q310 128 358 168T417 287Q393 262 351 248T260 233Q191 233 138 261T55 342T25 468Q25 539 57 594T154 682T311 714Q450 714 526 629T603 393Q603 263 558 171T432
32T248 -15Q174 -15 121 2ZM355 369T385 399T415 472Q415 516 385 546T311 576Q268 576 238 546T208 472Q208 429 238 399T311 369Q355 369 385 399Z" />
<glyph unicode=":" glyph-name="colon" horiz-adv-x="222" d="M76 327T51 352T25 413Q25 448 50 473T111 499Q146 499 171 474T197 413Q197 378 172 353T111 327Q76 327 51 352ZM76 9T51 34T25 95Q25 130 50 155T111 181Q146 181 171 156T197 95Q197 60 172 35T111
9Q76 9 51 34Z" />
<glyph unicode=";" glyph-name="semicolon" horiz-adv-x="315" d="M155 327T130 352T104 413Q104 448 129 473T190 499Q225 499 250 474T276 413Q276 378 251 353T190 327Q155 327 130 352ZM108 62H290L185 -149H25L108 62Z" />
<glyph unicode="&lt;" glyph-name="less" horiz-adv-x="530" d="M25 264V387L505 622V439L257 325L505 211V28L25 264Z" />
<glyph unicode="=" glyph-name="equal" horiz-adv-x="513" d="M25 517H488V379H25V517ZM25 291H488V152H25V291Z" />
<glyph unicode="&gt;" glyph-name="greater" horiz-adv-x="530" d="M25 211L273 325L25 439V622L505 387V264L25 28V211Z" />
<glyph unicode="?" glyph-name="question" horiz-adv-x="523" d="M133 251Q133 353 214 410L240 428Q277 452 291 467T306 506Q306 564 209 564Q164 564 116 552T25 518V672Q117 714 231 714Q354 714 426 663T498 520Q498 469 475 438T397 367Q360 340 343 326T318
293T309 249V230H133V251ZM180 -15T154 11T127 77Q127 117 153 143T220 169Q259 169 286 143T314 77Q314 38 287 12T220 -15Q180 -15 154 11Z" />
<glyph unicode="@" glyph-name="at" horiz-adv-x="902" d="M320 -76T225 -34T78 90T25 287Q25 411 82 508T242 659T477 714Q601 714 691 673T829 554T877 366Q877 248 824 177T677 106Q643 106 613 121T570 163Q546 136 508 121T427 106Q342 106 289 151T236 286Q236
355 265 410T349 496T476 528Q521 528 569 517T649 488L636 256Q635 229 644 216T673 202Q706 202 722 246T738 366Q738 483 674 538T476 593Q386 593 315 557T204 452T164 287Q164 165 237 104T447 42Q548 42 623 67V-48Q546 -76 447 -76Q320 -76 225 -34ZM473
216T490 234T509 282L517 409Q502 416 473 416Q432 416 406 383T380 296Q380 216 439 216Q473 216 490 234Z" />
<glyph unicode="A" glyph-name="A" horiz-adv-x="783" d="M305 699H479L758 0H577L521 144H263L207 0H25L305 699ZM477 280L392 515L306 280H477Z" />
<glyph unicode="B" glyph-name="B" horiz-adv-x="664" d="M45 699H399Q500 699 558 649T617 506Q617 462 597 424T540 364Q591 344 615 307T639 209Q639 145 609 98T529 25T416 0H45V699ZM360 422Q438 422 438 495Q438 536 418 551T357 567H222V422H360ZM371 132Q416
132 438 149T460 209Q460 252 437 271T367 291H222V132H371Z" />
<glyph unicode="C" glyph-name="C" horiz-adv-x="682" d="M292 -15T206 29T72 155T25 349Q25 460 72 542T205 669T406 714Q481 714 540 699T649 652V484Q605 519 550 535T422 551Q319 551 263 498T207 349Q207 254 263 200T422 146Q494 146 551 163T657 217V50Q562
-15 406 -15Q292 -15 206 29Z" />
<glyph unicode="D" glyph-name="D" horiz-adv-x="701" d="M45 699H296Q411 699 497 657T629 537T676 353Q676 179 574 90T291 0H45V699ZM306 149Q397 149 445 204T494 353Q494 439 446 494T312 550H222V149H306Z" />
<glyph unicode="E" glyph-name="E" horiz-adv-x="566" d="M45 699H541V550H222V419H455V280H222V149H541V0H45V699Z" />
<glyph unicode="F" glyph-name="F" horiz-adv-x="546" d="M45 699H541V550H222V419H455V280H222V0H45V699Z" />
<glyph unicode="G" glyph-name="G" horiz-adv-x="695" d="M292 -15T206 29T72 155T25 349Q25 460 72 542T205 669T406 714Q482 714 540 700T649 653V485Q605 520 550 535T422 551Q360 551 312 527T235 456T207 349Q207 254 262 199T413 144Q466 144 502 162V274H395V398H670V50Q563
-15 406 -15Q292 -15 206 29Z" />
<glyph unicode="H" glyph-name="H" horiz-adv-x="718" d="M45 699H222V429H496V699H673V0H496V282H222V0H45V699Z" />
<glyph unicode="I" glyph-name="I" horiz-adv-x="267" d="M45 699H222V0H45V699Z" />
<glyph unicode="J" glyph-name="J" horiz-adv-x="388" d="M96 -15T60 -9T5 8V164Q20 157 43 153T91 149Q135 149 153 167T171 229V699H348V209Q348 106 292 46T129 -15Q96 -15 60 -9Z" />
<glyph unicode="K" glyph-name="K" horiz-adv-x="717" d="M45 699H222V409L463 699H673L390 359L692 0H482L222 309V0H45V699Z" />
<glyph unicode="L" glyph-name="L" horiz-adv-x="531" d="M45 699H222V149H526V0H45V699Z" />
<glyph unicode="M" glyph-name="M" horiz-adv-x="834" d="M45 699H215L417 266L620 699H789V0H624V351L457 0H377L211 351V0H45V699Z" />
<glyph unicode="N" glyph-name="N" horiz-adv-x="699" d="M45 699H220L477 283V699H654V0H480L222 417V0H45V699Z" />
<glyph unicode="O" glyph-name="O" horiz-adv-x="800" d="M295 -15T210 31T75 159T25 349Q25 456 74 539T209 668T401 714Q506 714 591 668T726 539T775 349Q775 242 726 160T592 31T401 -15Q295 -15 210 31ZM454 151T498 175T568 244T594 349Q594 409 569 453T499
522T401 547Q346 547 302 523T233 454T207 349Q207 289 232 244T302 175T401 151Q454 151 498 175Z" />
<glyph unicode="P" glyph-name="P" horiz-adv-x="636" d="M45 699H353Q475 699 548 635T621 456Q621 338 549 274T353 209H222V0H45V699ZM325 358Q378 358 408 380T439 456Q439 510 409 530T325 550H222V358H325Z" />
<glyph unicode="Q" glyph-name="Q" horiz-adv-x="803" d="M304 0T214 42T75 164T25 350Q25 457 74 540T209 668T401 714Q506 714 591 669T726 540T775 350Q775 290 747 232T676 138H793V0H423Q304 0 214 42ZM454 151T498 175T568 244T594 349Q594 409 569 453T499
522T401 547Q346 547 302 523T233 454T207 349Q207 289 232 244T302 175T401 151Q454 151 498 175Z" />
<glyph unicode="R" glyph-name="R" horiz-adv-x="646" d="M45 699H359Q482 699 551 637T621 459Q621 381 587 326T491 244L615 0H433L322 219H222V0H45V699ZM328 368Q381 368 410 388T439 459Q439 511 411 530T328 550H222V368H328Z" />
<glyph unicode="S" glyph-name="S" horiz-adv-x="569" d="M197 -15T132 -3T25 32V191Q79 163 137 149T249 135Q298 135 323 150T348 193Q348 214 335 229T295 258T214 294Q117 335 73 385T29 508Q29 568 62 615T156 688T294 714Q358 714 408 704T504 672V517Q416
563 327 563Q279 563 251 548T222 503Q222 474 251 456T358 407Q429 378 468 350T526 285T544 191Q544 94 474 40T263 -15Q197 -15 132 -3Z" />
<glyph unicode="T" glyph-name="T" horiz-adv-x="592" d="M207 550H10V699H582V550H384V0H207V550Z" />
<glyph unicode="U" glyph-name="U" horiz-adv-x="715" d="M200 -15T120 69T40 293V699H217V291Q217 221 254 185T358 149Q424 149 461 185T498 291V699H675V293Q675 153 596 69T358 -15Q200 -15 120 69Z" />
<glyph unicode="V" glyph-name="V" horiz-adv-x="783" d="M25 699H214L392 234L570 699H758L479 0H305L25 699Z" />
<glyph unicode="W" glyph-name="W" horiz-adv-x="992" d="M25 699H207L324 285L437 699H563L669 284L785 699H967L774 0H611L496 406L382 0H218L25 699Z" />
<glyph unicode="X" glyph-name="X" horiz-adv-x="759" d="M278 350L26 699H229L380 490L531 699H734L481 350L734 0H531L380 209L228 0H25L278 350Z" />
<glyph unicode="Y" glyph-name="Y" horiz-adv-x="750" d="M283 266L25 699H214L372 428L537 699H725L460 266V0H283V266Z" />
<glyph unicode="Z" glyph-name="Z" horiz-adv-x="611" d="M25 120L343 550H33V699H564V578L248 149H586V0H25V120Z" />
<glyph unicode="[" glyph-name="bracketleft" horiz-adv-x="337" d="M25 787H322V638H202V53H322V-96H25V787Z" />
<glyph unicode="\" glyph-name="backslash" horiz-adv-x="515" d="M25 714H205L490 0H310L25 714Z" />
<glyph unicode="]" glyph-name="bracketright" horiz-adv-x="337" d="M15 53H135V638H15V787H312V-96H15V53Z" />
<glyph unicode="^" glyph-name="asciicircum" horiz-adv-x="585" d="M223 719H363L560 380H392L293 558L193 380H25L223 719Z" />
<glyph unicode="_" glyph-name="underscore" horiz-adv-x="479" d="M25 0H454V-145H25V0Z" />
<glyph unicode="`" glyph-name="grave" horiz-adv-x="304" d="M25 745H210L279 567H116L25 745Z" />
<glyph unicode="a" glyph-name="a" horiz-adv-x="593" d="M136 -15T81 28T25 150Q25 231 78 274T232 318Q271 318 310 310T377 287V297Q377 374 251 374Q163 374 90 340V461Q122 476 174 485T282 495Q416 495 484 442T553 292V0H388V41Q361 15 320 0T226 -15Q136
-15 81 28ZM309 93T336 105T377 138V180Q334 209 279 209Q244 209 225 194T206 150Q206 123 224 108T278 93Q309 93 336 105Z" />
<glyph unicode="b" glyph-name="b" horiz-adv-x="665" d="M282 -15T215 48V0H45V739H221V441Q250 466 293 480T385 495Q461 495 518 463T608 373T640 239Q640 163 608 106T518 17T385 -15Q282 -15 215 48ZM393 121T426 152T459 239Q459 294 426 326T339 358Q299
358 267 338T221 282V197Q235 162 267 142T339 121Q393 121 426 152Z" />
<glyph unicode="c" glyph-name="c" horiz-adv-x="539" d="M179 -15T102 51T25 239Q25 361 102 428T312 495Q371 495 422 484T508 451V314Q447 358 347 358Q283 358 245 329T206 239Q206 178 244 150T346 121Q443 121 514 167V31Q438 -15 311 -15Q179 -15 102 51Z" />
<glyph unicode="d" glyph-name="d" horiz-adv-x="665" d="M205 -15T147 16T57 105T25 239Q25 314 57 372T146 463T280 495Q330 495 372 481T444 441V739H620V0H450V48Q383 -15 280 -15Q205 -15 147 16ZM366 121T398 141T444 197V282Q430 317 398 337T326 358Q272
358 239 326T206 239Q206 184 239 153T326 121Q366 121 398 141Z" />
<glyph unicode="e" glyph-name="e" horiz-adv-x="600" d="M186 -15T106 51T25 238Q25 357 96 426T303 495Q389 495 450 463T543 374T575 246V181H192Q202 141 242 123T351 105Q398 105 447 113T533 135V19Q496 4 441 -5T327 -15Q186 -15 106 51ZM409 291Q405 330
377 352T300 374Q252 374 224 352T192 291H409Z" />
<glyph unicode="f" glyph-name="f" horiz-adv-x="374" d="M72 358H5V480H72V540Q72 637 133 690T293 744Q348 744 389 726V586Q361 600 326 600Q286 600 267 582T248 525V480H359V358H248V0H72V358Z" />
<glyph unicode="g" glyph-name="g" horiz-adv-x="665" d="M258 -230T210 -221T126 -197V-75Q205 -109 306 -109Q379 -109 411 -79T444 9V38Q415 13 373 -1T282 -15Q206 -15 148 17T58 107T25 240Q25 316 57 374T147 463T280 495Q383 495 450 432V480H620V33Q620
-92 544 -161T306 -230Q258 -230 210 -221ZM367 121T399 142T444 198V282Q430 317 398 337T326 358Q272 358 239 327T206 241Q206 186 239 154T326 121Q367 121 399 142Z" />
<glyph unicode="h" glyph-name="h" horiz-adv-x="620" d="M45 739H221V431Q253 463 294 479T382 495Q483 495 531 443T580 300V0H404V277Q404 358 330 358Q296 358 268 343T221 295V0H45V739Z" />
<glyph unicode="i" glyph-name="i" horiz-adv-x="278" d="M99 544T72 570T45 636Q45 675 72 701T139 728Q178 728 205 702T233 636Q233 597 206 571T139 544Q99 544 72 570ZM51 480H227V0H51V480Z" />
<glyph unicode="j" glyph-name="j" horiz-adv-x="277" d="M98 544T71 570T44 636Q44 675 71 701T138 728Q177 728 204 702T232 636Q232 597 205 571T138 544Q98 544 71 570ZM-53 -231T-90 -214V-74Q-60 -88 -22 -88Q50 -88 50 -15V480H226V-36Q226 -132 166 -181T6
-231Q-53 -231 -90 -214Z" />
<glyph unicode="k" glyph-name="k" horiz-adv-x="632" d="M45 739H221V287L379 480H581L390 248L607 0H405L221 211V0H45V739Z" />
<glyph unicode="l" glyph-name="l" horiz-adv-x="266" d="M45 739H221V0H45V739Z" />
<glyph unicode="m" glyph-name="m" horiz-adv-x="874" d="M45 480H208V428Q238 460 277 477T360 495Q414 495 446 479T499 431Q529 461 572 478T659 495Q754 495 794 447T834 307V0H666V282Q666 322 651 340T601 358Q556 358 528 326Q529 309 529 274V0H361V289Q361
326 348 342T302 358Q251 358 214 301V0H45V480Z" />
<glyph unicode="n" glyph-name="n" horiz-adv-x="620" d="M45 480H215V427Q246 461 290 478T382 495Q483 495 531 443T580 300V0H404V277Q404 358 330 358Q296 358 268 343T221 295V0H45V480Z" />
<glyph unicode="o" glyph-name="o" horiz-adv-x="642" d="M232 -15T165 17T62 107T25 240Q25 315 61 372T165 462T321 495Q410 495 477 463T580 373T617 240Q617 165 581 108T477 18T321 -15Q232 -15 165 17ZM374 122T405 153T437 240Q437 295 406 326T321 358Q268
358 237 327T205 240Q205 185 236 154T321 122Q374 122 405 153Z" />
<glyph unicode="p" glyph-name="p" horiz-adv-x="665" d="M45 480H215V432Q282 495 385 495Q460 495 518 464T608 375T640 241Q640 166 608 108T519 17T385 -15Q337 -15 294 -1T221 39V-219H45V480ZM393 122T426 154T459 241Q459 296 426 327T339 359Q299 359
267 339T221 283V198Q235 163 267 143T339 122Q393 122 426 154Z" />
<glyph unicode="q" glyph-name="q" horiz-adv-x="665" d="M444 39Q415 14 372 0T280 -15Q204 -15 147 17T57 107T25 241Q25 317 57 374T147 463T280 495Q383 495 450 432V480H620V-219H444V39ZM366 122T398 142T444 198V283Q430 318 398 338T326 359Q272 359 239
328T206 241Q206 186 239 154T326 122Q366 122 398 142Z" />
<glyph unicode="r" glyph-name="r" horiz-adv-x="412" d="M45 480H215V420Q243 452 294 469T407 487V352Q341 352 291 333T221 276V0H45V480Z" />
<glyph unicode="s" glyph-name="s" horiz-adv-x="509" d="M194 -15T131 -4T31 29V158Q72 134 129 119T235 103Q270 103 286 108T302 128Q302 140 292 147T254 163T190 182Q129 200 94 219T42 267T25 340Q25 418 86 456T255 495Q307 495 364 484T451 455V328Q421
348 372 361T279 374Q245 374 226 368T207 345Q207 330 226 322T294 302Q326 294 321 295Q385 278 420 257T469 208T484 135Q484 66 425 26T252 -15Q194 -15 131 -4Z" />
<glyph unicode="t" glyph-name="t" horiz-adv-x="386" d="M164 -15T119 34T73 170V358H5V480H73V624H249V480H359V358H249V194Q249 155 263 138T315 121Q348 121 381 139V8Q355 -4 326 -9T253 -15Q164 -15 119 34Z" />
<glyph unicode="u" glyph-name="u" horiz-adv-x="620" d="M139 -15T90 40T40 185V480H216V205Q216 122 291 122Q325 122 353 138T399 185V480H575V0H405V52Q374 19 330 2T238 -15Q139 -15 90 40Z" />
<glyph unicode="v" glyph-name="v" horiz-adv-x="619" d="M25 480H201L310 201L418 480H594L393 0H226L25 480Z" />
<glyph unicode="w" glyph-name="w" horiz-adv-x="852" d="M25 480H201L278 205L355 480H497L574 205L651 480H827L666 0H508L426 270L344 0H186L25 480Z" />
<glyph unicode="x" glyph-name="x" horiz-adv-x="660" d="M231 248L38 480H236L330 367L424 480H622L429 248L635 0H439L330 130L222 0H25L231 248Z" />
<glyph unicode="y" glyph-name="y" horiz-adv-x="625" d="M161 -198T126 -194T74 -181V-50Q103 -62 140 -62Q173 -62 191 -48T221 -2L233 30L25 480H201L326 168L444 480H620L422 -22Q387 -112 333 -155T193 -198Q161 -198 126 -194Z" />
<glyph unicode="z" glyph-name="z" horiz-adv-x="518" d="M25 96L253 358H31V480H485V384L259 122H493V0H25V96Z" />
<glyph unicode="{" glyph-name="braceleft" horiz-adv-x="356" d="M142 -97T115 -69T87 18V208Q87 236 74 252T34 268H5V422H34Q60 422 73 437T87 481V672Q87 730 114 758T191 787H341V638H299Q280 638 272 630T264 602V452Q264 369 195 346V344Q264 321 264 238V89Q264
69 272 61T299 52H341V-97H191Q142 -97 115 -69Z" />
<glyph unicode="|" glyph-name="bar" horiz-adv-x="227" d="M25 812H202V-144H25V812Z" />
<glyph unicode="}" glyph-name="braceright" horiz-adv-x="356" d="M15 52H57Q76 52 84 60T92 89V238Q92 321 161 344V346Q92 369 92 452V602Q92 621 84 629T57 638H15V787H165Q214 787 241 759T269 672V481Q269 453 282 438T322 422H351V268H322Q296 268 283
252T269 208V18Q269 -40 242 -68T165 -97H15V52Z" />
<glyph unicode="~" glyph-name="asciitilde" horiz-adv-x="513" d="M348 238T322 245T252 267Q213 281 188 288T139 295Q70 295 25 240V393Q62 439 139 439Q165 439 190 432T260 410Q301 396 326 389T374 382Q443 382 488 438V285Q452 238 374 238Q348 238 322 245Z" />
<glyph unicode="&#xa0;" glyph-name="uni00A0" horiz-adv-x="340" />
<glyph unicode="&#xa1;" glyph-name="exclamdown" horiz-adv-x="237" d="M79 366T52 392T25 458Q25 496 52 523T119 550Q157 550 184 523T212 458Q212 419 185 393T119 366Q79 366 52 392ZM31 305H207V-164H31V305Z" />
<glyph unicode="&#xa2;" glyph-name="cent" horiz-adv-x="539" d="M238 -9Q138 8 82 71T25 239Q25 343 81 407T238 489V581H395V489Q465 478 508 451V314Q477 337 435 348T347 360Q283 360 245 330T206 239Q206 178 244 149T346 119Q440 119 514 167V31Q469 3
395 -9V-101H238V-9Z" />
<glyph unicode="&#xa3;" glyph-name="sterling" horiz-adv-x="483" d="M25 149H94V298H28V437H94V505Q94 571 124 618T208 690T326 714Q382 714 423 696V556Q393 570 359 570Q318 570 295 550T271 490V437H407V298H271V149H458V0H25V149Z" />
<glyph unicode="&#xa4;" glyph-name="currency" horiz-adv-x="603" d="M25 121L110 184Q84 227 84 278Q84 328 110 374L26 436L98 525L188 454Q239 486 302 486Q365 486 416 454L505 524L577 436L494 374Q519 330 519 278Q519 225 494 184L578 121L505 31L415
101Q363 70 302 70Q241 70 189 101L98 31L25 121ZM338 192T363 217T388 278Q388 315 363 340T302 366Q266 366 241 341T216 278Q216 242 241 217T302 192Q338 192 363 217Z" />
<glyph unicode="&#xa5;" glyph-name="yen" horiz-adv-x="750" d="M283 75H156V189H283V234H156V347H234L25 699H214L372 428L537 699H725L509 347H586V234H460V189H586V75H460V0H283V75Z" />
<glyph unicode="&#xa6;" glyph-name="brokenbar" horiz-adv-x="227" d="M25 812H202V410H25V812ZM25 257H202V-144H25V257Z" />
<glyph unicode="&#xa7;" glyph-name="section" horiz-adv-x="569" d="M197 -170T132 -158T25 -123V36Q79 8 137 -6T249 -20Q342 -20 342 38Q342 60 330 74T294 100T214 135Q117 176 73 227T29 353Q29 396 51 429Q29 463 29 508Q29 568 62 615T156 688T294 714Q358
714 408 704T504 672V517Q416 563 327 563Q282 563 255 548T228 503Q228 476 255 458T358 409Q429 380 468 352T526 286T544 191Q544 154 524 117Q544 80 544 36Q544 -61 474 -115T263 -170Q197 -170 132 -158ZM384 207T384 221Q384 249 363 265T289 303Q263 313
239 326T203 350Q199 339 199 326Q199 300 220 283T292 245Q328 230 348 220T381 198Q384 207 384 221Z" />
<glyph unicode="&#xa8;" glyph-name="dieresis" horiz-adv-x="440" d="M71 570T48 592T25 646Q25 678 48 701T103 724Q134 724 156 701T179 646Q179 614 157 592T103 570Q71 570 48 592ZM307 570T284 592T261 646Q261 678 284 701T339 724Q370 724 392 701T415
646Q415 614 393 592T339 570Q307 570 284 592Z" />
<glyph unicode="&#xa9;" glyph-name="copyright" horiz-adv-x="795" d="M296 -15T211 31T75 160T25 349Q25 456 75 539T210 668T398 714Q500 714 585 668T720 539T770 349Q770 243 721 160T586 31T398 -15Q296 -15 211 31ZM472 92T530 122T621 210T654 349Q654
429 621 487T530 575T398 606Q323 606 265 576T174 487T141 349Q141 268 174 210T265 122T398 92Q472 92 530 122ZM298 136T240 191T181 348Q181 449 240 504T398 560Q498 560 556 524V415Q505 453 427 453Q379 453 350 426T321 348Q321 297 349 271T426 244Q503
244 561 284V175Q496 136 397 136Q298 136 240 191Z" />
<glyph unicode="&#xaa;" glyph-name="ordfeminine" horiz-adv-x="428" d="M105 349T65 380T25 467Q25 525 63 556T174 587Q202 587 229 581T277 565V573Q277 600 254 613T187 627Q124 627 71 603V689Q94 700 131 707T209 714Q305 714 354 676T403 569V360H285V389Q266
371 237 360T169 349Q105 349 65 380ZM229 426T248 435T277 458V489Q246 509 207 509Q155 509 155 467Q155 447 168 437T206 426Q229 426 248 435Z" />
<glyph unicode="&#xab;" glyph-name="guillemotleft" horiz-adv-x="685" d="M25 307V344L272 567L370 467L210 325L370 184L272 84L25 307ZM315 307V344L562 567L660 467L500 325L660 184L562 84L315 307Z" />
<glyph unicode="&#xac;" glyph-name="logicalnot" horiz-adv-x="447" d="M265 233H25V373H422V127H265V233Z" />
<glyph unicode="&#xad;" glyph-name="uni00AD" horiz-adv-x="406" d="M25 373H381V233H25V373Z" />
<glyph unicode="&#xae;" glyph-name="registered" horiz-adv-x="795" d="M296 -15T211 31T75 160T25 349Q25 456 75 539T210 668T398 714Q500 714 585 668T720 539T770 349Q770 243 721 160T586 31T398 -15Q296 -15 211 31ZM472 92T530 122T621 210T654 349Q654
429 621 487T530 575T398 606Q323 606 265 576T174 487T141 349Q141 268 174 210T265 122T398 92Q472 92 530 122ZM239 554H428Q500 554 542 517T585 411Q585 365 566 333T512 284L572 160H456L404 267H361V160H239V554ZM417 367Q468 367 468 411Q468 454 417 454H361V367H417Z"
/>
<glyph unicode="&#xaf;" glyph-name="overscore" horiz-adv-x="395" d="M25 687H370V574H25V687Z" />
<glyph unicode="&#xb0;" glyph-name="degree" horiz-adv-x="338" d="M130 439T97 458T45 511T25 583Q25 622 44 655T97 707T169 727Q208 727 241 708T293 655T313 583Q313 544 294 511T241 459T169 439Q130 439 97 458ZM190 533T204 548T219 583Q219 603 205 617T169
632Q149 632 135 618T120 583Q120 563 134 548T169 533Q190 533 204 548Z" />
<glyph unicode="&#xb1;" glyph-name="plusminus" horiz-adv-x="406" d="M133 281H25V413H133V525H273V413H381V281H273V169H133V281ZM25 132H381V0H25V132Z" />
<glyph unicode="&#xb2;" glyph-name="uni00B2" horiz-adv-x="339" d="M25 438L42 450Q118 502 148 528T178 577Q178 593 168 600T135 607Q110 607 83 598T37 574V678Q57 691 94 700T165 709Q235 709 271 677T308 599Q308 561 284 532T198 458H314V370H25V438Z" />
<glyph unicode="&#xb3;" glyph-name="uni00B3" horiz-adv-x="343" d="M122 360T86 365T25 381V464Q47 453 73 448T123 442Q152 442 166 449T181 472Q181 488 168 494T122 501H77V570H121Q172 570 172 597Q172 611 159 618T120 626Q72 626 31 600V684Q54 695 89
702T162 709Q230 709 269 682T309 609Q309 562 269 535Q318 515 318 462Q318 415 277 388T160 360Q122 360 86 365Z" />
<glyph unicode="&#xb4;" glyph-name="acute" horiz-adv-x="304" d="M94 745H279L188 567H25L94 745Z" />
<glyph unicode="&#xb6;" glyph-name="paragraph" horiz-adv-x="762" d="M294 277H263Q155 277 90 338T25 517Q25 638 100 700T295 762H737V-134H560V617H471V-134H294V277Z" />
<glyph unicode="&#xb7;" glyph-name="middot" horiz-adv-x="177" d="M62 234T44 252T25 297Q25 323 43 342T88 361Q115 361 133 342T152 297Q152 271 134 253T88 234Q62 234 44 252Z" />
<glyph unicode="&#xb8;" glyph-name="cedilla" horiz-adv-x="323" d="M104 -248T73 -244T25 -234V-149Q51 -163 86 -163Q110 -163 123 -154T136 -129Q136 -110 114 -100T38 -89L72 0H227L209 -46Q253 -53 275 -75T298 -141Q298 -194 255 -221T138 -248Q104 -248 73 -244Z" />
<glyph unicode="&#xb9;" glyph-name="uni00B9" horiz-adv-x="231" d="M99 574L25 521V635L112 699H226V370H99V574Z" />
<glyph unicode="&#xba;" glyph-name="ordmasculine" horiz-adv-x="475" d="M141 348T83 398T25 531Q25 584 51 625T125 690T238 714Q301 714 349 691T424 626T450 531Q450 448 392 398T238 348Q141 348 83 398ZM275 447T297 470T320 531Q320 570 298 592T238 615Q200
615 178 593T155 531Q155 493 177 470T238 447Q275 447 297 470Z" />
<glyph unicode="&#xbb;" glyph-name="guillemotright" horiz-adv-x="685" d="M25 184L185 325L25 467L123 567L370 344V307L123 84L25 184ZM315 184L475 325L315 467L413 567L660 344V307L413 84L315 184Z" />
<glyph unicode="&#xbc;" glyph-name="onequarter" horiz-adv-x="768" d="M99 574L25 521V635L112 699H226V370H99V574ZM482 699H661L274 0H95L482 699ZM571 58H425V138L564 329H698V144H743V58H698V0H571V58ZM605 144V231L538 144H605Z" />
<glyph unicode="&#xbd;" glyph-name="onehalf" horiz-adv-x="789" d="M99 574L25 521V635L112 699H226V370H99V574ZM482 699H661L274 0H95L482 699ZM475 68Q560 127 593 155T627 207Q627 223 617 230T584 237Q559 237 532 228T487 204V308Q507 321 544 330T615
339Q684 339 720 307T757 229Q757 191 733 162T647 88H764V0H475V68Z" />
<glyph unicode="&#xbe;" glyph-name="threequarters" horiz-adv-x="782" d="M122 360T86 365T25 381V464Q47 453 73 448T123 442Q152 442 166 449T181 472Q181 488 168 494T122 501H77V570H121Q172 570 172 597Q172 611 159 618T120 626Q72 626 31 600V684Q54
695 89 702T162 709Q230 709 269 682T309 609Q309 562 269 535Q318 515 318 462Q318 415 277 388T160 360Q122 360 86 365ZM499 699H678L291 0H112L499 699ZM585 58H439V138L578 329H712V144H757V58H712V0H585V58ZM619 144V231L552 144H619Z" />
<glyph unicode="&#xbf;" glyph-name="questiondown" horiz-adv-x="523" d="M264 366T237 392T209 458Q209 497 236 523T303 550Q343 550 369 524T396 458Q396 418 370 392T303 366Q264 366 237 392ZM169 -179T97 -128T25 15Q25 66 48 97T126 168Q163 195 180 209T205
242T214 286V305H390V284Q390 182 309 125L283 107Q246 83 232 68T217 29Q217 -29 314 -29Q359 -29 407 -17T498 17V-137Q406 -179 292 -179Q169 -179 97 -128Z" />
<glyph unicode="&#xc0;" glyph-name="Agrave" horiz-adv-x="783" d="M222 920H407L476 742H313L222 920ZM305 699H479L758 0H577L521 144H263L207 0H25L305 699ZM477 280L392 515L306 280H477Z" />
<glyph unicode="&#xc1;" glyph-name="Aacute" horiz-adv-x="783" d="M383 920H568L477 742H314L383 920ZM305 699H479L758 0H577L521 144H263L207 0H25L305 699ZM477 280L392 515L306 280H477Z" />
<glyph unicode="&#xc2;" glyph-name="Acircumflex" horiz-adv-x="783" d="M314 923H471L627 742H453L393 827L333 742H158L314 923ZM305 699H479L758 0H577L521 144H263L207 0H25L305 699ZM477 280L392 515L306 280H477Z" />
<glyph unicode="&#xc3;" glyph-name="Atilde" horiz-adv-x="783" d="M189 870Q224 912 294 912Q316 912 338 906T395 887Q425 875 447 869T491 862Q554 862 596 912V784Q562 743 491 743Q466 743 442 749T386 769Q354 781 335 787T294 793Q232 793 189 742V870ZM305
699H479L758 0H577L521 144H263L207 0H25L305 699ZM477 280L392 515L306 280H477Z" />
<glyph unicode="&#xc4;" glyph-name="Adieresis" horiz-adv-x="783" d="M243 742T220 764T197 818Q197 850 220 873T275 896Q306 896 328 873T351 818Q351 786 329 764T275 742Q243 742 220 764ZM479 742T456 764T433 818Q433 850 456 873T511 896Q542 896 564
873T587 818Q587 786 565 764T511 742Q479 742 456 764ZM305 699H479L758 0H577L521 144H263L207 0H25L305 699ZM477 280L392 515L306 280H477Z" />
<glyph unicode="&#xc5;" glyph-name="Aring" horiz-adv-x="783" d="M758 0H577L521 144H263L207 0H25L295 673Q274 692 263 718T251 774Q251 812 270 844T321 895T392 914Q430 914 463 896T515 845T534 774Q534 745 523 719T490 673L758 0ZM373 820T360 807T346
774Q346 755 359 742T392 728Q411 728 424 741T438 774Q438 794 425 807T392 820Q373 820 360 807ZM477 280L392 515L306 280H477Z" />
<glyph unicode="&#xc6;" glyph-name="AE" horiz-adv-x="907" d="M331 699H892V550H602V419H807V280H602V149H892V0H424V145H279L215 0H25L331 699ZM424 284V521H423L329 284H424Z" />
<glyph unicode="&#xc7;" glyph-name="Ccedilla" horiz-adv-x="682" d="M591 5T498 -9L483 -46Q527 -53 549 -75T572 -141Q572 -194 529 -221T412 -248Q378 -248 347 -244T299 -234V-149Q325 -163 360 -163Q384 -163 397 -154T410 -129Q410 -110 388 -100T312 -89L342
-11Q245 1 174 48T64 172T25 349Q25 460 72 542T205 669T406 714Q481 714 540 699T649 652V484Q605 519 550 535T422 551Q319 551 263 498T207 349Q207 254 263 200T422 146Q494 146 551 163T657 217V50Q591 5 498 -9Z" />
<glyph unicode="&#xc8;" glyph-name="Egrave" horiz-adv-x="566" d="M131 920H316L385 742H222L131 920ZM45 699H541V550H222V419H455V280H222V149H541V0H45V699Z" />
<glyph unicode="&#xc9;" glyph-name="Eacute" horiz-adv-x="566" d="M274 912H459L368 734H205L274 912ZM45 699H541V550H222V419H455V280H222V149H541V0H45V699Z" />
<glyph unicode="&#xca;" glyph-name="Ecircumflex" horiz-adv-x="566" d="M213 923H370L526 742H352L292 827L232 742H57L213 923ZM45 699H541V550H222V419H455V280H222V149H541V0H45V699Z" />
<glyph unicode="&#xcb;" glyph-name="Edieresis" horiz-adv-x="566" d="M148 752T125 774T102 828Q102 860 125 883T180 906Q211 906 233 883T256 828Q256 796 234 774T180 752Q148 752 125 774ZM384 752T361 774T338 828Q338 860 361 883T416 906Q447 906 469
883T492 828Q492 796 470 774T416 752Q384 752 361 774ZM45 699H541V550H222V419H455V280H222V149H541V0H45V699Z" />
<glyph unicode="&#xcc;" glyph-name="Igrave" horiz-adv-x="267" d="M-36 920H149L218 742H55L-36 920ZM45 699H222V0H45V699Z" />
<glyph unicode="&#xcd;" glyph-name="Iacute" horiz-adv-x="267" d="M118 920H303L212 742H49L118 920ZM45 699H222V0H45V699Z" />
<glyph unicode="&#xce;" glyph-name="Icircumflex" horiz-adv-x="267" d="M55 923H212L368 742H194L134 827L74 742H-101L55 923ZM45 699H222V0H45V699Z" />
<glyph unicode="&#xcf;" glyph-name="Idieresis" horiz-adv-x="267" d="M-16 752T-39 774T-62 828Q-62 860 -39 883T16 906Q47 906 69 883T92 828Q92 796 70 774T16 752Q-16 752 -39 774ZM220 752T197 774T174 828Q174 860 197 883T252 906Q283 906 305 883T328
828Q328 796 306 774T252 752Q220 752 197 774ZM45 699H222V0H45V699Z" />
<glyph unicode="&#xd0;" glyph-name="Eth" horiz-adv-x="742" d="M86 283H35V415H86V699H337Q452 699 538 657T670 537T717 353Q717 179 615 90T332 0H86V283ZM347 149Q438 149 486 204T535 353Q535 439 487 494T353 550H263V415H406V283H263V149H347Z" />
<glyph unicode="&#xd1;" glyph-name="Ntilde" horiz-adv-x="699" d="M155 870Q190 912 260 912Q282 912 304 906T361 887Q391 875 413 869T457 862Q520 862 562 912V784Q528 743 457 743Q432 743 408 749T352 769Q320 781 301 787T260 793Q198 793 155 742V870ZM45
699H220L477 283V699H654V0H480L222 417V0H45V699Z" />
<glyph unicode="&#xd2;" glyph-name="Ograve" horiz-adv-x="800" d="M249 920H434L503 742H340L249 920ZM295 -15T210 31T75 159T25 349Q25 456 74 539T209 668T401 714Q506 714 591 668T726 539T775 349Q775 242 726 160T592 31T401 -15Q295 -15 210 31ZM454
151T498 175T568 244T594 349Q594 409 569 453T499 522T401 547Q346 547 302 523T233 454T207 349Q207 289 232 244T302 175T401 151Q454 151 498 175Z" />
<glyph unicode="&#xd3;" glyph-name="Oacute" horiz-adv-x="800" d="M386 920H571L480 742H317L386 920ZM295 -15T210 31T75 159T25 349Q25 456 74 539T209 668T401 714Q506 714 591 668T726 539T775 349Q775 242 726 160T592 31T401 -15Q295 -15 210 31ZM454
151T498 175T568 244T594 349Q594 409 569 453T499 522T401 547Q346 547 302 523T233 454T207 349Q207 289 232 244T302 175T401 151Q454 151 498 175Z" />
<glyph unicode="&#xd4;" glyph-name="Ocircumflex" horiz-adv-x="800" d="M322 923H479L635 742H461L401 827L341 742H166L322 923ZM295 -15T210 31T75 159T25 349Q25 456 74 539T209 668T401 714Q506 714 591 668T726 539T775 349Q775 242 726 160T592 31T401
-15Q295 -15 210 31ZM454 151T498 175T568 244T594 349Q594 409 569 453T499 522T401 547Q346 547 302 523T233 454T207 349Q207 289 232 244T302 175T401 151Q454 151 498 175Z" />
<glyph unicode="&#xd5;" glyph-name="Otilde" horiz-adv-x="800" d="M197 870Q232 912 302 912Q324 912 346 906T403 887Q433 875 455 869T499 862Q562 862 604 912V784Q570 743 499 743Q474 743 450 749T394 769Q362 781 343 787T302 793Q240 793 197 742V870ZM295
-15T210 31T75 159T25 349Q25 456 74 539T209 668T401 714Q506 714 591 668T726 539T775 349Q775 242 726 160T592 31T401 -15Q295 -15 210 31ZM454 151T498 175T568 244T594 349Q594 409 569 453T499 522T401 547Q346 547 302 523T233 454T207 349Q207 289 232
244T302 175T401 151Q454 151 498 175Z" />
<glyph unicode="&#xd6;" glyph-name="Odieresis" horiz-adv-x="800" d="M251 747T228 769T205 823Q205 855 228 878T283 901Q314 901 336 878T359 823Q359 791 337 769T283 747Q251 747 228 769ZM487 747T464 769T441 823Q441 855 464 878T519 901Q550 901 572
878T595 823Q595 791 573 769T519 747Q487 747 464 769ZM295 -15T210 31T75 159T25 349Q25 456 74 539T209 668T401 714Q506 714 591 668T726 539T775 349Q775 242 726 160T592 31T401 -15Q295 -15 210 31ZM454 151T498 175T568 244T594 349Q594 409 569 453T499
522T401 547Q346 547 302 523T233 454T207 349Q207 289 232 244T302 175T401 151Q454 151 498 175Z" />
<glyph unicode="&#xd7;" glyph-name="multiply" horiz-adv-x="401" d="M200 210L125 135L26 234L101 309L25 386L125 485L200 409L277 486L376 386L300 310L376 234L277 134L200 210Z" />
<glyph unicode="&#xd8;" glyph-name="Oslash" horiz-adv-x="800" d="M210 30Q124 76 75 159T25 349Q25 456 74 539T209 668T401 714Q440 714 482 706L513 784H635L589 669Q675 624 725 541T775 349Q775 242 726 160T592 31T401 -15Q360 -15 317 -7L285 -86H163L210
30ZM417 546Q412 547 401 547Q346 547 302 523T233 454T207 349Q207 298 225 259T275 193L417 546ZM454 151T498 175T568 244T594 349Q594 399 575 439T523 506L381 152Q387 151 401 151Q454 151 498 175Z" />
<glyph unicode="&#xd9;" glyph-name="Ugrave" horiz-adv-x="715" d="M205 920H390L459 742H296L205 920ZM200 -15T120 69T40 293V699H217V291Q217 221 254 185T358 149Q424 149 461 185T498 291V699H675V293Q675 153 596 69T358 -15Q200 -15 120 69Z" />
<glyph unicode="&#xda;" glyph-name="Uacute" horiz-adv-x="715" d="M351 920H536L445 742H282L351 920ZM200 -15T120 69T40 293V699H217V291Q217 221 254 185T358 149Q424 149 461 185T498 291V699H675V293Q675 153 596 69T358 -15Q200 -15 120 69Z" />
<glyph unicode="&#xdb;" glyph-name="Ucircumflex" horiz-adv-x="715" d="M279 923H436L592 742H418L358 827L298 742H123L279 923ZM200 -15T120 69T40 293V699H217V291Q217 221 254 185T358 149Q424 149 461 185T498 291V699H675V293Q675 153 596 69T358 -15Q200
-15 120 69Z" />
<glyph unicode="&#xdc;" glyph-name="Udieresis" horiz-adv-x="715" d="M208 747T185 769T162 823Q162 855 185 878T240 901Q271 901 293 878T316 823Q316 791 294 769T240 747Q208 747 185 769ZM444 747T421 769T398 823Q398 855 421 878T476 901Q507 901 529
878T552 823Q552 791 530 769T476 747Q444 747 421 769ZM200 -15T120 69T40 293V699H217V291Q217 221 254 185T358 149Q424 149 461 185T498 291V699H675V293Q675 153 596 69T358 -15Q200 -15 120 69Z" />
<glyph unicode="&#xdd;" glyph-name="Yacute" horiz-adv-x="750" d="M348 920H533L442 742H279L348 920ZM283 266L25 699H214L372 428L537 699H725L460 266V0H283V266Z" />
<glyph unicode="&#xde;" glyph-name="Thorn" horiz-adv-x="636" d="M45 699H222V588H357Q480 588 550 528T621 352Q621 235 551 176T357 116H222V0H45V699ZM325 265Q380 265 409 283T439 352Q439 403 410 421T325 439H222V265H325Z" />
<glyph unicode="&#xdf;" glyph-name="germandbls" horiz-adv-x="648" d="M312 -15T269 3V149Q300 129 355 129Q398 129 421 155T444 224Q444 315 341 315H288V437H331Q371 437 390 461T409 524Q409 560 386 580T320 600Q271 600 244 577T216 509V0H40V489Q40 608
112 676T319 744Q414 744 474 712T561 630T588 521Q588 475 569 437T512 377Q623 335 623 208Q623 102 566 44T395 -15Q312 -15 269 3Z" />
<glyph unicode="&#xe0;" glyph-name="agrave" horiz-adv-x="593" d="M170 696H355L424 518H261L170 696ZM136 -15T81 28T25 150Q25 231 78 274T232 318Q271 318 310 310T377 287V297Q377 374 251 374Q163 374 90 340V461Q122 476 174 485T282 495Q416 495 484
442T553 292V0H388V41Q361 15 320 0T226 -15Q136 -15 81 28ZM309 93T336 105T377 138V180Q334 209 279 209Q244 209 225 194T206 150Q206 123 224 108T278 93Q309 93 336 105Z" />
<glyph unicode="&#xe1;" glyph-name="aacute" horiz-adv-x="593" d="M289 696H474L383 518H220L289 696ZM136 -15T81 28T25 150Q25 231 78 274T232 318Q271 318 310 310T377 287V297Q377 374 251 374Q163 374 90 340V461Q122 476 174 485T282 495Q416 495 484
442T553 292V0H388V41Q361 15 320 0T226 -15Q136 -15 81 28ZM309 93T336 105T377 138V180Q334 209 279 209Q244 209 225 194T206 150Q206 123 224 108T278 93Q309 93 336 105Z" />
<glyph unicode="&#xe2;" glyph-name="acircumflex" horiz-adv-x="594" d="M241 706H398L554 525H380L320 610L260 525H85L241 706ZM136 -15T81 28T25 150Q25 231 78 274T232 318Q271 318 310 310T377 287V297Q377 374 251 374Q163 374 90 340V461Q122 476 174
485T282 495Q416 495 484 442T553 292V0H388V41Q361 15 320 0T226 -15Q136 -15 81 28ZM309 93T336 105T377 138V180Q334 209 279 209Q244 209 225 194T206 150Q206 123 224 108T278 93Q309 93 336 105Z" />
<glyph unicode="&#xe3;" glyph-name="atilde" horiz-adv-x="593" d="M125 653Q160 695 230 695Q252 695 274 689T331 670Q361 658 383 652T427 645Q490 645 532 695V567Q498 526 427 526Q402 526 378 532T322 552Q290 564 271 570T230 576Q168 576 125 525V653ZM136
-15T81 28T25 150Q25 231 78 274T232 318Q271 318 310 310T377 287V297Q377 374 251 374Q163 374 90 340V461Q122 476 174 485T282 495Q416 495 484 442T553 292V0H388V41Q361 15 320 0T226 -15Q136 -15 81 28ZM309 93T336 105T377 138V180Q334 209 279 209Q244
209 225 194T206 150Q206 123 224 108T278 93Q309 93 336 105Z" />
<glyph unicode="&#xe4;" glyph-name="adieresis" horiz-adv-x="593" d="M162 521T139 543T116 597Q116 629 139 652T194 675Q225 675 247 652T270 597Q270 565 248 543T194 521Q162 521 139 543ZM398 521T375 543T352 597Q352 629 375 652T430 675Q461 675 483
652T506 597Q506 565 484 543T430 521Q398 521 375 543ZM136 -15T81 28T25 150Q25 231 78 274T232 318Q271 318 310 310T377 287V297Q377 374 251 374Q163 374 90 340V461Q122 476 174 485T282 495Q416 495 484 442T553 292V0H388V41Q361 15 320 0T226 -15Q136
-15 81 28ZM309 93T336 105T377 138V180Q334 209 279 209Q244 209 225 194T206 150Q206 123 224 108T278 93Q309 93 336 105Z" />
<glyph unicode="&#xe5;" glyph-name="aring" horiz-adv-x="593" d="M284 525T252 543T200 594T181 664Q181 702 200 734T251 785T322 804Q360 804 393 786T445 735T464 664Q464 626 445 594T393 544T322 525Q284 525 252 543ZM341 618T354 631T368 664Q368 684
355 697T322 710Q303 710 290 697T276 664Q276 645 289 632T322 618Q341 618 354 631ZM136 -15T81 28T25 150Q25 231 78 274T232 318Q271 318 310 310T377 287V297Q377 374 251 374Q163 374 90 340V461Q122 476 174 485T282 495Q416 495 484 442T553 292V0H388V41Q361
15 320 0T226 -15Q136 -15 81 28ZM309 93T336 105T377 138V180Q334 209 279 209Q244 209 225 194T206 150Q206 123 224 108T278 93Q309 93 336 105Z" />
<glyph unicode="&#xe6;" glyph-name="ae" horiz-adv-x="960" d="M142 -15T84 28T25 150Q25 230 80 274T232 318Q271 318 310 310T377 287V297Q377 374 251 374Q163 374 90 340V461Q122 476 174 485T282 495Q402 495 474 434Q509 463 557 479T663 495Q749 495 810
463T903 374T935 246V185H553Q574 105 711 105Q758 105 807 113T893 135V19Q856 4 802 -5T691 -15Q623 -15 567 3T472 57Q428 22 374 4T240 -15Q142 -15 84 28ZM769 289Q765 329 737 351T660 374Q612 374 585 351T553 289H769ZM309 93T335 104T377 136V180Q334
209 279 209Q244 209 225 194T206 150Q206 123 224 108T278 93Q309 93 335 104Z" />
<glyph unicode="&#xe7;" glyph-name="ccedilla" horiz-adv-x="539" d="M469 4T401 -8L386 -46Q430 -53 452 -75T475 -141Q475 -194 432 -221T315 -248Q281 -248 250 -244T202 -234V-149Q228 -163 263 -163Q287 -163 300 -154T313 -129Q313 -110 291 -100T215 -89L245
-10Q142 5 84 69T25 239Q25 361 102 428T312 495Q371 495 422 484T508 451V314Q447 358 347 358Q283 358 245 329T206 239Q206 178 244 150T346 121Q443 121 514 167V31Q469 4 401 -8Z" />
<glyph unicode="&#xe8;" glyph-name="egrave" horiz-adv-x="600" d="M156 696H341L410 518H247L156 696ZM186 -15T106 51T25 238Q25 357 96 426T303 495Q389 495 450 463T543 374T575 246V181H192Q202 141 242 123T351 105Q398 105 447 113T533 135V19Q496 4 441
-5T327 -15Q186 -15 106 51ZM409 291Q405 330 377 352T300 374Q252 374 224 352T192 291H409Z" />
<glyph unicode="&#xe9;" glyph-name="eacute" horiz-adv-x="600" d="M290 696H475L384 518H221L290 696ZM186 -15T106 51T25 238Q25 357 96 426T303 495Q389 495 450 463T543 374T575 246V181H192Q202 141 242 123T351 105Q398 105 447 113T533 135V19Q496 4 441
-5T327 -15Q186 -15 106 51ZM409 291Q405 330 377 352T300 374Q252 374 224 352T192 291H409Z" />
<glyph unicode="&#xea;" glyph-name="ecircumflex" horiz-adv-x="618" d="M247 706H404L560 525H386L326 610L266 525H91L247 706ZM204 -15T124 51T43 238Q43 357 114 426T321 495Q407 495 468 463T561 374T593 246V181H210Q220 141 260 123T369 105Q416 105 465
113T551 135V19Q514 4 459 -5T345 -15Q204 -15 124 51ZM427 291Q423 330 395 352T318 374Q270 374 242 352T210 291H427Z" />
<glyph unicode="&#xeb;" glyph-name="edieresis" horiz-adv-x="600" d="M162 526T139 548T116 602Q116 634 139 657T194 680Q225 680 247 657T270 602Q270 570 248 548T194 526Q162 526 139 548ZM398 526T375 548T352 602Q352 634 375 657T430 680Q461 680 483
657T506 602Q506 570 484 548T430 526Q398 526 375 548ZM186 -15T106 51T25 238Q25 357 96 426T303 495Q389 495 450 463T543 374T575 246V181H192Q202 141 242 123T351 105Q398 105 447 113T533 135V19Q496 4 441 -5T327 -15Q186 -15 106 51ZM409 291Q405 330
377 352T300 374Q252 374 224 352T192 291H409Z" />
<glyph unicode="&#xec;" glyph-name="igrave" horiz-adv-x="266" d="M-35 696H150L219 518H56L-35 696ZM45 480H221V0H45V480Z" />
<glyph unicode="&#xed;" glyph-name="iacute" horiz-adv-x="266" d="M115 696H300L209 518H46L115 696ZM45 480H221V0H45V480Z" />
<glyph unicode="&#xee;" glyph-name="icircumflex" horiz-adv-x="266" d="M55 706H212L368 525H194L134 610L74 525H-101L55 706ZM45 480H221V0H45V480Z" />
<glyph unicode="&#xef;" glyph-name="idieresis" horiz-adv-x="266" d="M-16 526T-39 548T-62 602Q-62 634 -39 657T16 680Q47 680 69 657T92 602Q92 570 70 548T16 526Q-16 526 -39 548ZM220 526T197 548T174 602Q174 634 197 657T252 680Q283 680 305 657T328
602Q328 570 306 548T252 526Q220 526 197 548ZM45 480H221V0H45V480Z" />
<glyph unicode="&#xf0;" glyph-name="eth" horiz-adv-x="628" d="M213 -15T150 16T56 101T25 226Q25 336 95 396T282 457Q324 457 364 445T430 411Q422 497 380 540L256 474V544L316 576Q293 581 271 581Q234 581 199 575T139 556V695Q164 703 202 708T274 714Q390
714 469 657L585 719V650L516 613Q603 512 603 326Q603 221 566 144T462 26T305 -15Q213 -15 150 16ZM357 118T384 148T411 222Q411 269 383 297T311 325Q264 325 237 298T210 222Q210 174 237 146T311 118Q357 118 384 148Z" />
<glyph unicode="&#xf1;" glyph-name="ntilde" horiz-adv-x="620" d="M113 654Q148 696 218 696Q240 696 262 690T319 671Q349 659 371 653T415 646Q478 646 520 696V568Q486 527 415 527Q390 527 366 533T310 553Q278 565 259 571T218 577Q156 577 113 526V654ZM45
480H215V427Q246 461 290 478T382 495Q483 495 531 443T580 300V0H404V277Q404 358 330 358Q296 358 268 343T221 295V0H45V480Z" />
<glyph unicode="&#xf2;" glyph-name="ograve" horiz-adv-x="642" d="M164 696H349L418 518H255L164 696ZM232 -15T165 17T62 107T25 240Q25 315 61 372T165 462T321 495Q410 495 477 463T580 373T617 240Q617 165 581 108T477 18T321 -15Q232 -15 165 17ZM374
122T405 153T437 240Q437 295 406 326T321 358Q268 358 237 327T205 240Q205 185 236 154T321 122Q374 122 405 153Z" />
<glyph unicode="&#xf3;" glyph-name="oacute" horiz-adv-x="642" d="M312 696H497L406 518H243L312 696ZM232 -15T165 17T62 107T25 240Q25 315 61 372T165 462T321 495Q410 495 477 463T580 373T617 240Q617 165 581 108T477 18T321 -15Q232 -15 165 17ZM374
122T405 153T437 240Q437 295 406 326T321 358Q268 358 237 327T205 240Q205 185 236 154T321 122Q374 122 405 153Z" />
<glyph unicode="&#xf4;" glyph-name="ocircumflex" horiz-adv-x="642" d="M244 706H401L557 525H383L323 610L263 525H88L244 706ZM232 -15T165 17T62 107T25 240Q25 315 61 372T165 462T321 495Q410 495 477 463T580 373T617 240Q617 165 581 108T477 18T321
-15Q232 -15 165 17ZM374 122T405 153T437 240Q437 295 406 326T321 358Q268 358 237 327T205 240Q205 185 236 154T321 122Q374 122 405 153Z" />
<glyph unicode="&#xf5;" glyph-name="otilde" horiz-adv-x="642" d="M119 660Q154 702 224 702Q246 702 268 696T325 677Q355 665 377 659T421 652Q484 652 526 702V574Q492 533 421 533Q396 533 372 539T316 559Q284 571 265 577T224 583Q162 583 119 532V660ZM232
-15T165 17T62 107T25 240Q25 315 61 372T165 462T321 495Q410 495 477 463T580 373T617 240Q617 165 581 108T477 18T321 -15Q232 -15 165 17ZM374 122T405 153T437 240Q437 295 406 326T321 358Q268 358 237 327T205 240Q205 185 236 154T321 122Q374 122 405
153Z" />
<glyph unicode="&#xf6;" glyph-name="odieresis" horiz-adv-x="642" d="M173 526T150 548T127 602Q127 634 150 657T205 680Q236 680 258 657T281 602Q281 570 259 548T205 526Q173 526 150 548ZM409 526T386 548T363 602Q363 634 386 657T441 680Q472 680 494
657T517 602Q517 570 495 548T441 526Q409 526 386 548ZM232 -15T165 17T62 107T25 240Q25 315 61 372T165 462T321 495Q410 495 477 463T580 373T617 240Q617 165 581 108T477 18T321 -15Q232 -15 165 17ZM374 122T405 153T437 240Q437 295 406 326T321 358Q268
358 237 327T205 240Q205 185 236 154T321 122Q374 122 405 153Z" />
<glyph unicode="&#xf7;" glyph-name="divide" horiz-adv-x="406" d="M173 402T154 421T135 467Q135 495 154 514T201 534Q229 534 248 515T267 467Q267 440 248 421T201 402Q173 402 154 421ZM25 373H381V233H25V373ZM173 71T154 90T135 136Q135 164 154 183T201
203Q229 203 248 184T267 136Q267 109 248 90T201 71Q173 71 154 90Z" />
<glyph unicode="&#xf8;" glyph-name="oslash" horiz-adv-x="642" d="M171 14Q102 45 64 104T25 240Q25 315 61 372T165 462T321 495Q337 495 363 493L393 566H508L468 467Q539 436 578 377T617 240Q617 165 581 108T477 18T321 -15Q305 -15 275 -13L246 -86H131L171
14ZM309 357Q261 353 233 322T205 240Q205 191 230 160L309 357ZM380 125T408 156T437 240Q437 290 410 322L330 122Q380 125 408 156Z" />
<glyph unicode="&#xf9;" glyph-name="ugrave" horiz-adv-x="620" d="M158 696H343L412 518H249L158 696ZM139 -15T90 40T40 185V480H216V205Q216 122 291 122Q325 122 353 138T399 185V480H575V0H405V52Q374 19 330 2T238 -15Q139 -15 90 40Z" />
<glyph unicode="&#xfa;" glyph-name="uacute" horiz-adv-x="620" d="M294 696H479L388 518H225L294 696ZM139 -15T90 40T40 185V480H216V205Q216 122 291 122Q325 122 353 138T399 185V480H575V0H405V52Q374 19 330 2T238 -15Q139 -15 90 40Z" />
<glyph unicode="&#xfb;" glyph-name="ucircumflex" horiz-adv-x="620" d="M232 706H389L545 525H371L311 610L251 525H76L232 706ZM139 -15T90 40T40 185V480H216V205Q216 122 291 122Q325 122 353 138T399 185V480H575V0H405V52Q374 19 330 2T238 -15Q139 -15 90 40Z" />
<glyph unicode="&#xfc;" glyph-name="udieresis" horiz-adv-x="620" d="M162 526T139 548T116 602Q116 634 139 657T194 680Q225 680 247 657T270 602Q270 570 248 548T194 526Q162 526 139 548ZM398 526T375 548T352 602Q352 634 375 657T430 680Q461 680 483
657T506 602Q506 570 484 548T430 526Q398 526 375 548ZM139 -15T90 40T40 185V480H216V205Q216 122 291 122Q325 122 353 138T399 185V480H575V0H405V52Q374 19 330 2T238 -15Q139 -15 90 40Z" />
<glyph unicode="&#xfd;" glyph-name="yacute" horiz-adv-x="625" d="M303 698H488L397 520H234L303 698ZM161 -198T126 -194T74 -181V-50Q103 -62 140 -62Q173 -62 191 -48T221 -2L233 30L25 480H201L326 168L444 480H620L422 -22Q387 -112 333 -155T193 -198Q161
-198 126 -194Z" />
<glyph unicode="&#xfe;" glyph-name="thorn" horiz-adv-x="665" d="M45 699H221V441Q250 466 293 480T385 495Q460 495 518 464T608 375T640 241Q640 166 608 108T519 17T385 -15Q337 -15 294 -1T221 39V-219H45V699ZM393 122T426 154T459 241Q459 296 426 327T339
359Q299 359 267 339T221 283V198Q235 163 267 143T339 122Q393 122 426 154Z" />
<glyph unicode="&#xff;" glyph-name="ydieresis" horiz-adv-x="625" d="M180 526T157 548T134 602Q134 634 157 657T212 680Q243 680 265 657T288 602Q288 570 266 548T212 526Q180 526 157 548ZM416 526T393 548T370 602Q370 634 393 657T448 680Q479 680 501
657T524 602Q524 570 502 548T448 526Q416 526 393 548ZM161 -198T126 -194T74 -181V-50Q103 -62 140 -62Q173 -62 191 -48T221 -2L233 30L25 480H201L326 168L444 480H620L422 -22Q387 -112 333 -155T193 -198Q161 -198 126 -194Z" />
<glyph unicode="&#x2013;" glyph-name="endash" horiz-adv-x="659" d="M25 373H634V233H25V373Z" />
<glyph unicode="&#x2014;" glyph-name="emdash" horiz-adv-x="794" d="M25 373H769V233H25V373Z" />
<glyph unicode="&#x2018;" glyph-name="quoteleft" horiz-adv-x="278" d="M108 714H253L189 514H25L108 714Z" />
<glyph unicode="&#x2019;" glyph-name="quoteright" horiz-adv-x="282" d="M89 714H257L174 514H25L89 714Z" />
<glyph unicode="&#x201a;" glyph-name="quotesinglbase" horiz-adv-x="282" d="M89 71H257L174 -129H25L89 71Z" />
<glyph unicode="&#x201c;" glyph-name="quotedblleft" horiz-adv-x="481" d="M108 714H257L193 514H25L108 714ZM307 714H456L392 514H224L307 714Z" />
<glyph unicode="&#x201d;" glyph-name="quotedblright" horiz-adv-x="481" d="M89 714H257L174 514H25L89 714ZM288 714H456L373 514H224L288 714Z" />
<glyph unicode="&#x201e;" glyph-name="quotedblbase" horiz-adv-x="481" d="M89 71H257L174 -129H25L89 71ZM288 71H456L373 -129H224L288 71Z" />
<glyph unicode="&#x2022;" glyph-name="bullet" horiz-adv-x="257" d="M86 194T56 224T25 298Q25 341 55 371T129 401Q173 401 202 372T232 298Q232 254 202 224T129 194Q86 194 56 224Z" />
<glyph unicode="&#x2039;" glyph-name="guilsinglleft" horiz-adv-x="395" d="M25 307V344L272 567L370 467L210 325L370 184L272 84L25 307Z" />
<glyph unicode="&#x203a;" glyph-name="guilsinglright" horiz-adv-x="395" d="M25 184L185 325L25 467L123 567L370 344V307L123 84L25 184Z" />
</font>
</defs>
</svg>
